<?xml version="1.0" standalone="no"?>
<!DOCTYPE svg PUBLIC "-//W3C//DTD SVG 1.1//EN" "http://www.w3.org/Graphics/SVG/1.1/DTD/svg11.dtd">
<svg xmlns="http://www.w3.org/2000/svg">
<defs >
<font id="SourceSansPro" horiz-adv-x="434" ><font-face
    font-family="Source Sans Pro ExtraLight"
    units-per-em="1000"
    panose-1="2 11 3 3 3 4 3 2 2 4"
    ascent="984"
    descent="-273"
    alphabetic="0" />
<glyph unicode=" " glyph-name="space" horiz-adv-x="198" />
<glyph unicode="!" glyph-name="exclam" horiz-adv-x="248" d="M108 608V670H140V608L136 172H112L108 608ZM88 26Q88 46 99 56T124 66Q138 66 149 56T160 26Q160 8 149 -2T124 -12Q110 -12 99 -2T88 26Z" />
<glyph unicode="&quot;" glyph-name="quotedbl" horiz-adv-x="336" d="M84 634V694H122V634L116 494H90L84 634ZM212 634V694H250V634L244 494H218L212 634Z" />
<glyph unicode="#" glyph-name="numbersign" horiz-adv-x="472" d="M120 218H36V246H124L146 424H56V452H148L174 650H202L176 452H332L358 650H386L360 452H442V424H358L336 246H422V218H332L306 0H278L304 218H148L122 0H94L120 218ZM308 246L330 424H174L152 246H308Z" />
<glyph unicode="$" glyph-name="dollar" horiz-adv-x="472" d="M374 562Q360 576 347 587T318 607T285 619T242 624Q215 624 193 615T154 589T129 550T120 502Q120 455 141 427T195 380T266 343T336 303T390 243T412 148Q412 112 400 84T367 35T318 2T258 -12V-110H228V-11Q174
-7 132 16T62 66L80 88Q93 75 110 63T148 40T193 23T244 16Q310 16 345 52T380 146Q380 198 359 230T305 285T234 324T164 363T110 416T88 500Q88 531 98 557T128 604T172 636T228 651V750H258V652Q307 649 337 629T394 582L374 562Z" />
<glyph unicode="%" glyph-name="percent" horiz-adv-x="798" d="M180 258Q115 258 79 311T42 466Q42 566 78 619T180 672Q245 672 281 619T318 466Q318 365 282 312T180 258ZM180 284Q230 284 259 332T288 466Q288 552 259 599T180 646Q130 646 101 599T72 466Q72
380 101 332T180 284ZM196 -12L566 672H598L228 -12H196ZM618 -12Q553 -12 517 41T480 196Q480 296 516 349T618 402Q683 402 719 349T756 196Q756 95 720 42T618 -12ZM618 14Q668 14 697 62T726 196Q726 282 697 329T618 376Q568 376 539 329T510 196Q510 110
539 62T618 14Z" />
<glyph unicode="&amp;" glyph-name="ampersand" horiz-adv-x="562" d="M226 16Q270 16 309 37T380 93Q326 144 275 207T187 339Q163 321 142 302T105 262T80 218T70 168Q70 133 82 105T116 58T166 27T226 16ZM160 530Q160 495 170 457T199 380Q225 399 249 418T292
459T322 503T334 554Q334 570 330 586T317 615T294 636T258 644Q235 644 217 635T186 611T167 574T160 530ZM538 -12Q508 -1 474 20T401 74Q365 36 322 12T224 -12Q186 -12 153 0T94 36T53 92T38 166Q38 198 49 225T80 276T124 321T175 362Q154 405 142 447T130
528Q130 559 139 585T166 631T207 661T260 672Q311 672 337 639T364 556Q364 524 351 498T316 447T266 401T210 357Q245 289 295 226T399 115Q437 162 463 219T508 342H538Q518 273 489 211T420 97Q490 39 550 16L538 -12Z" />
<glyph unicode="&apos;" glyph-name="quotesingle" horiz-adv-x="208" d="M84 634V694H122V634L116 494H90L84 634Z" />
<glyph unicode="(" glyph-name="parenleft" horiz-adv-x="270" d="M222 -174Q160 -74 125 35T90 278Q90 411 125 520T222 730L240 718Q180 623 149 511T118 278Q118 157 149 45T240 -162L222 -174V-174Z" />
<glyph unicode=")" glyph-name="parenright" horiz-adv-x="270" d="M30 -162Q90 -67 121 45T152 278Q152 399 121 511T30 718L48 730Q110 630 145 521T180 278Q180 145 145 36T48 -174L30 -162V-162Z" />
<glyph unicode="*" glyph-name="asterisk" horiz-adv-x="386" d="M108 494L162 580L74 614L82 638L174 612L180 712H206L212 614L304 638L312 614L224 580L278 494L256 478L194 560L130 478L108 494Z" />
<glyph unicode="+" glyph-name="plus" horiz-adv-x="472" d="M220 316H34V344H220V548H252V344H438V316H252V112H220V316Z" />
<glyph unicode="," glyph-name="comma" horiz-adv-x="208" d="M48 -126Q79 -108 99 -78T120 -5Q116 -6 108 -6Q93 -6 83 3T72 30Q72 48 83 57T108 66Q128 66 140 50T152 4Q152 -47 126 -86T60 -150L48 -126Z" />
<glyph unicode="-" glyph-name="hyphen" horiz-adv-x="294" d="M40 264H256V234H40V264Z" />
<glyph unicode="." glyph-name="period" horiz-adv-x="208" d="M68 26Q68 46 79 56T104 66Q118 66 129 56T140 26Q140 8 129 -2T104 -12Q90 -12 79 -2T68 26Z" />
<glyph unicode="/" glyph-name="slash" horiz-adv-x="360" d="M328 710H358L38 -160H8L328 710Z" />
<glyph unicode="0" glyph-name="zero" horiz-adv-x="472" d="M236 -12Q145 -12 98 75T50 322Q50 482 97 567T236 652Q327 652 374 567T422 322Q422 162 375 75T236 -12ZM236 16Q307 16 348 94T390 322Q390 471 349 547T236 624Q165 624 124 548T82 322Q82 173
123 95T236 16Z" />
<glyph unicode="1" glyph-name="one" horiz-adv-x="472" d="M86 28H238V580H124V602Q162 608 191 618T242 640H268V28H410V0H86V28Z" />
<glyph unicode="2" glyph-name="two" horiz-adv-x="472" d="M42 20Q123 103 183 168T283 288T342 387T362 476Q362 507 354 534T327 581T282 612T216 624Q171 624 132 600T62 538L40 558Q75 597 118 624T218 652Q303 652 348 604T394 476Q394 427 373 379T312
276T215 161T88 24Q115 26 142 27T196 28H426V0H42V20Z" />
<glyph unicode="3" glyph-name="three" horiz-adv-x="472" d="M50 100Q64 84 81 69T121 42T170 23T232 16Q266 16 294 27T344 57T376 104T388 166Q388 200 375 229T334 278T263 310T158 322V352Q215 352 254 363T318 395T353 441T364 498Q364 555 327 589T228
624Q183 624 144 603T78 552L58 574Q90 606 131 629T228 652Q263 652 294 642T347 612T383 564T396 500Q396 468 387 442T361 397T321 363T272 340V336Q302 330 329 316T376 281T408 231T420 168Q420 127 406 94T366 37T305 1T230 -12Q192 -12 162 -4T107 17T64
46T30 78L50 100Z" />
<glyph unicode="4" glyph-name="four" horiz-adv-x="472" d="M312 224V476Q312 497 313 529T316 582H312Q300 562 287 545T260 506L58 224H312ZM440 196H342V0H312V196H16V212L322 640H342V224H440V196Z" />
<glyph unicode="5" glyph-name="five" horiz-adv-x="472" d="M46 96Q60 81 77 67T115 41T164 23T226 16Q259 16 289 29T342 66T378 123T392 198Q392 279 348 325T228 372Q190 372 163 360T106 328L80 344L104 640H390V612H132L110 366Q136 382 164 392T230 402Q270
402 305 390T367 354T409 291T424 200Q424 149 407 110T362 43T297 2T224 -12Q186 -12 156 -4T102 16T60 43T26 74L46 96Z" />
<glyph unicode="6" glyph-name="six" horiz-adv-x="472" d="M260 16Q289 16 314 29T357 66T385 120T396 186Q396 222 388 253T362 307T317 343T250 356Q215 356 172 333T87 255Q90 203 101 159T134 84T186 34T260 16ZM394 570Q372 597 344 610T284 624Q245 624
209 607T146 551T103 449T86 293Q120 335 162 359T252 384Q337 384 382 334T428 186Q428 143 415 107T378 45T323 3T258 -12Q161 -12 108 66T54 288Q54 390 73 459T124 572T198 633T286 652Q328 652 359 636T414 592L394 570Z" />
<glyph unicode="7" glyph-name="seven" horiz-adv-x="472" d="M192 0Q196 99 208 181T245 337T304 477T388 612H44V640H430V622Q372 545 335 473T274 328T241 174T226 0H192V0Z" />
<glyph unicode="8" glyph-name="eight" horiz-adv-x="472" d="M72 164Q72 133 84 106T119 59T172 28T240 16Q276 16 305 27T355 56T387 100T398 154Q398 193 381 220T335 268T269 303T194 334Q141 304 107 262T72 164ZM288 330Q332 365 355 403T378 486Q378 514
369 539T342 583T299 613T240 624Q211 624 188 615T147 588T120 548T110 498Q110 462 125 436T166 391T224 357T288 330ZM40 164Q40 197 52 225T82 277T124 318T170 348V352Q153 363 137 378T107 411T86 450T78 498Q78 532 90 560T125 608T176 640T240 652Q280
652 312 640T365 605T398 552T410 486Q410 459 401 434T378 388T348 349T318 320V316Q338 303 358 289T394 255T420 211T430 154Q430 119 417 89T378 37T318 1T240 -12Q196 -12 160 1T97 38T55 94T40 164Z" />
<glyph unicode="9" glyph-name="nine" horiz-adv-x="472" d="M222 284Q257 284 300 307T385 385Q382 437 371 481T338 556T286 606T212 624Q183 624 158 611T115 574T87 520T76 454Q76 418 84 387T110 333T155 297T222 284ZM78 70Q100 43 128 30T188 16Q227 16
263 33T326 89T369 191T386 347Q352 305 310 281T220 256Q135 256 90 306T44 454Q44 497 57 533T94 595T148 637T214 652Q311 652 364 574T418 352Q418 250 399 181T348 68T274 7T186 -12Q144 -12 113 4T58 48L78 70Z" />
<glyph unicode=":" glyph-name="colon" horiz-adv-x="208" d="M68 416Q68 436 79 446T104 456Q118 456 129 446T140 416Q140 398 129 388T104 378Q90 378 79 388T68 416ZM68 26Q68 46 79 56T104 66Q118 66 129 56T140 26Q140 8 129 -2T104 -12Q90 -12 79 -2T68 26Z" />
<glyph unicode=";" glyph-name="semicolon" horiz-adv-x="208" d="M68 416Q68 436 79 446T104 456Q118 456 129 446T140 416Q140 398 129 388T104 378Q90 378 79 388T68 416ZM48 -126Q79 -108 99 -78T120 -5Q116 -6 108 -6Q93 -6 83 3T72 30Q72 48 83 57T108 66Q128
66 140 50T152 4Q152 -47 126 -86T60 -150L48 -126Z" />
<glyph unicode="&lt;" glyph-name="less" horiz-adv-x="472" d="M34 350L438 512V480L198 386L66 334V330L198 278L438 184V152L34 314V350Z" />
<glyph unicode="=" glyph-name="equal" horiz-adv-x="472" d="M34 444H438V416H34V444ZM34 501H438V473H34V501Z" />
<glyph unicode="&gt;" glyph-name="greater" horiz-adv-x="472" d="M438 314L34 152V184L274 278L406 330V334L274 386L34 480V512L438 350V314Z" />
<glyph unicode="?" glyph-name="question" horiz-adv-x="394" d="M164 172Q158 214 167 248T192 311T228 366T267 417T297 470T310 530Q310 554 303 576T282 616T244 643T190 654Q152 654 117 637T56 588L36 606Q65 638 103 660T192 682Q228 682 256 670T303 638T332
590T342 532Q342 498 330 469T299 412T260 359T222 305T196 244T192 172H164ZM146 26Q146 46 157 56T182 66Q196 66 207 56T218 26Q218 8 207 -2T182 -12Q168 -12 157 -2T146 26Z" />
<glyph unicode="@" glyph-name="at" horiz-adv-x="802" d="M52 202Q52 299 84 377T170 511T294 597T442 628Q513 628 570 606T667 543T728 444T750 316Q750 253 734 205T691 124T634 75T572 58Q533 58 507 76T478 134H476Q449 105 419 85T354 64Q331 64 311 72T276
97T251 139T242 198Q242 233 254 272T289 344T347 398T426 420Q480 420 510 372H512L520 412H546L512 228Q476 86 574 86Q598 86 624 101T671 145T706 216T720 314Q720 380 700 433T644 523T556 580T440 600Q371 600 307 572T192 492T112 367T82 204Q82 131 103
73T164 -27T260 -91T384 -114Q435 -114 476 -101T554 -64L568 -88Q484 -142 382 -142Q310 -142 250 -119T145 -51T77 57T52 202ZM272 200Q272 140 296 116T356 92Q409 92 470 162L502 340Q482 370 465 381T424 392Q389 392 361 375T313 329T283 267T272 200Z" />
<glyph unicode="A" glyph-name="A" horiz-adv-x="520" d="M384 264L338 396Q317 456 299 510T262 626H258Q240 564 222 510T182 396L135 264H384ZM394 236H125L42 0H10L246 660H274L510 0H476L394 236Z" />
<glyph unicode="B" glyph-name="B" horiz-adv-x="574" d="M100 660H272Q372 660 429 621T486 500Q486 447 457 409T368 356V352Q442 341 485 301T528 192Q528 97 463 49T284 0H100V660ZM252 366Q360 366 407 400T454 504Q454 572 405 602T258 632H132V366H252ZM272
28Q324 28 365 37T436 67T480 117T496 190Q496 265 438 301T272 338H132V28H272Z" />
<glyph unicode="C" glyph-name="C" horiz-adv-x="562" d="M56 332Q56 410 76 473T132 580T219 648T334 672Q391 672 433 648T502 594L482 572Q455 604 418 623T334 642Q277 642 232 621T155 559T107 461T90 332Q90 261 106 203T154 104T230 41T330 18Q383 18 423
39T502 102L522 82Q484 38 439 13T328 -12Q267 -12 217 12T131 82T76 190T56 332Z" />
<glyph unicode="D" glyph-name="D" horiz-adv-x="600" d="M100 660H248Q324 660 380 637T472 570T526 466T544 332Q544 258 527 197T473 93T380 25T248 0H100V660ZM244 28Q314 28 364 51T447 114T495 211T510 332Q510 397 495 452T448 547T365 609T244 632H132V28H244Z" />
<glyph unicode="E" glyph-name="E" horiz-adv-x="510" d="M100 660H454V632H132V366H402V338H132V28H464V0H100V660Z" />
<glyph unicode="F" glyph-name="F" horiz-adv-x="470" d="M100 660H452V632H132V354H402V326H132V0H100V660Z" />
<glyph unicode="G" glyph-name="G" horiz-adv-x="600" d="M56 332Q56 410 76 473T134 580T225 648T344 672Q377 672 404 665T452 647T490 621T520 594L500 572Q474 601 437 621T344 642Q285 642 238 621T158 559T108 461T90 332Q90 261 107 203T155 104T232 41T336
18Q384 18 426 32T494 72V290H330V318H526V62Q496 29 448 9T334 -12Q271 -12 220 12T132 82T76 190T56 332Z" />
<glyph unicode="H" glyph-name="H" horiz-adv-x="634" d="M100 660H132V366H502V660H534V0H502V338H132V0H100V660Z" />
<glyph unicode="I" glyph-name="I" horiz-adv-x="232" d="M100 660H132V0H100V660Z" />
<glyph unicode="J" glyph-name="J" horiz-adv-x="456" d="M70 98Q96 54 127 36T202 18Q265 18 295 56T326 178V660H358V174Q358 135 350 101T323 42T274 3T200 -12Q147 -12 108 12T44 82L70 98Z" />
<glyph unicode="K" glyph-name="K" horiz-adv-x="550" d="M100 660H132V280H134L470 660H510L298 418L538 0H500L274 394L132 234V0H100V660Z" />
<glyph unicode="L" glyph-name="L" horiz-adv-x="460" d="M100 660H132V28H442V0H100V660Z" />
<glyph unicode="M" glyph-name="M" horiz-adv-x="698" d="M100 660H152L294 260L348 110H352L404 260L546 660H598V0H566V460Q566 499 567 545T570 632H566L515 488L368 74H330L182 488L130 632H126Q128 591 129 545T130 460V0H100V660Z" />
<glyph unicode="N" glyph-name="N" horiz-adv-x="632" d="M100 660H134L426 176L502 46H506Q504 94 503 139T502 232V660H532V0H498L206 484L130 614H126Q128 567 129 524T130 434V0H100V660Z" />
<glyph unicode="O" glyph-name="O" horiz-adv-x="648" d="M324 -12Q265 -12 216 12T132 82T76 190T56 332Q56 410 76 473T131 580T216 648T324 672Q382 672 431 648T516 580T572 473T592 332Q592 254 572 191T517 82T432 13T324 -12ZM324 18Q376 18 419 40T493
104T541 203T558 332Q558 403 541 460T494 558T420 620T324 642Q271 642 228 621T155 559T107 461T90 332Q90 261 107 203T154 104T228 41T324 18Z" />
<glyph unicode="P" glyph-name="P" horiz-adv-x="552" d="M100 660H272Q383 660 443 620T504 480Q504 385 444 339T272 292H132V0H100V660ZM260 320Q367 320 418 357T470 480Q470 567 418 599T260 632H132V320H260Z" />
<glyph unicode="Q" glyph-name="Q" horiz-adv-x="648" d="M90 332Q90 261 107 203T154 103T228 39T324 16Q376 16 419 38T493 102T541 202T558 332Q558 403 541 460T494 558T420 620T324 642Q271 642 228 621T155 559T107 461T90 332ZM590 -142Q578 -145 558 -148T514
-152Q433 -152 380 -112T304 -11Q249 -7 204 19T125 90T74 196T56 332Q56 410 76 473T131 580T216 648T324 672Q382 672 431 648T516 580T572 473T592 332Q592 257 574 195T522 89T442 18T341 -11Q363 -63 407 -91T516 -120Q539 -120 554 -118T582 -112L590 -142Z"
/>
<glyph unicode="R" glyph-name="R" horiz-adv-x="552" d="M270 340Q362 340 411 376T460 490Q460 568 411 600T270 632H132V340H270ZM466 0L280 312H132V0H100V660H282Q331 660 370 651T436 621T479 568T494 490Q494 411 447 367T316 314L504 0H466Z" />
<glyph unicode="S" glyph-name="S" horiz-adv-x="516" d="M70 110Q106 68 157 43T268 18Q308 18 340 28T394 57T429 102T442 160Q442 193 432 215T406 254T367 283T320 306L218 352Q197 361 174 374T130 405T97 450T84 514Q84 549 98 578T137 628T196 660T270
672Q330 672 375 649T450 594L430 572Q401 604 361 623T270 642Q201 642 159 608T116 516Q116 485 127 464T156 427T194 401T232 382L334 336Q361 324 386 310T431 275T462 228T474 162Q474 124 459 93T417 38T352 1T268 -12Q194 -12 140 16T48 88L70 110Z" />
<glyph unicode="T" glyph-name="T" horiz-adv-x="520" d="M244 632H30V660H490V632H276V0H244V632Z" />
<glyph unicode="U" glyph-name="U" horiz-adv-x="630" d="M98 660H130V254Q130 186 145 141T185 68T244 30T314 18Q351 18 385 29T445 68T486 140T502 254V660H532V246Q532 169 513 120T463 41T393 0T314 -12Q274 -12 236 -1T167 40T117 119T98 246V660Z" />
<glyph unicode="V" glyph-name="V" horiz-adv-x="482" d="M6 660H40L168 264Q178 233 186 206T203 153T220 99T240 41H244Q254 71 263 98T280 152T297 206T316 264L444 660H476L258 0H226L6 660Z" />
<glyph unicode="W" glyph-name="W" horiz-adv-x="764" d="M30 660H64L152 260L200 44H204Q216 98 229 152T256 260L364 660H400L508 260L562 44H566Q578 98 589 152T612 260L700 660H732L580 0H548L420 474Q411 513 402 548T384 622H380Q371 583 361 548T342 474L216
0H184L30 660Z" />
<glyph unicode="X" glyph-name="X" horiz-adv-x="470" d="M218 342L32 660H66L182 456Q196 433 207 414T236 368H240Q255 395 265 414T290 456L406 660H438L252 340L452 0H418L296 212Q282 236 267 261T234 316H230Q213 286 200 261T172 212L50 0H18L218 342Z" />
<glyph unicode="Y" glyph-name="Y" horiz-adv-x="436" d="M202 272L4 660H38L144 446Q162 410 179 375T216 304H220Q240 340 258 375T294 446L400 660H432L234 272V0H202V272Z" />
<glyph unicode="Z" glyph-name="Z" horiz-adv-x="538" d="M52 18L444 632H86V660H484V642L92 28H488V0H52V18Z" />
<glyph unicode="[" glyph-name="bracketleft" horiz-adv-x="270" d="M100 708H252V686H124V-130H252V-152H100V708Z" />
<glyph unicode="\" glyph-name="backslash" horiz-adv-x="360" d="M2 710H32L352 -160H322L2 710Z" />
<glyph unicode="]" glyph-name="bracketright" horiz-adv-x="270" d="M146 -130V686H18V708H170V-152H18V-130H146Z" />
<glyph unicode="^" glyph-name="asciicircum" horiz-adv-x="472" d="M218 670H254L404 292H372L290 506L238 638H234L182 506L100 292H68L218 670Z" />
<glyph unicode="_" glyph-name="underscore" horiz-adv-x="500" d="M488 -82V-114H12V-82H488Z" />
<glyph unicode="`" glyph-name="grave" horiz-adv-x="532" d="M186 706H226L318 572H290L186 706Z" />
<glyph unicode="a" glyph-name="a" horiz-adv-x="494" d="M68 117Q68 197 144 238T382 298Q383 327 379 356T361 409T325 447T264 462Q238 462 215 457T172 442T136 423T108 404L92 428Q103 436 120 447T160 467T210 483T266 490Q308 490 336 476T381 436T405
379T412 310V0H386L382 64H380Q342 34 298 11T206 -12Q178 -12 153 -5T109 18T79 58T68 117ZM100 118Q100 90 108 71T132 39T166 22T208 16Q252 16 293 36T382 98V272Q303 263 249 250T162 217T115 174T100 118Z" />
<glyph unicode="b" glyph-name="b" horiz-adv-x="540" d="M96 722H126V508L124 412Q162 444 205 467T294 490Q391 490 438 424T486 246Q486 185 469 137T423 56T356 6T274 -12Q239 -12 201 3T128 44H126L122 0H96V722ZM126 82Q168 46 207 31T276 16Q315 16 347
33T404 80T441 153T454 246Q454 292 446 331T418 400T367 445T292 462Q254 462 213 441T126 378V82Z" />
<glyph unicode="c" glyph-name="c" horiz-adv-x="446" d="M54 238Q54 298 71 345T118 424T186 473T268 490Q318 490 351 472T408 430L388 408Q364 431 335 446T268 462Q230 462 197 446T139 400T100 329T86 238Q86 188 99 148T136 78T193 32T268 16Q309 16 342
33T402 74L420 52Q390 25 353 7T268 -12Q222 -12 183 5T116 54T71 132T54 238Z" />
<glyph unicode="d" glyph-name="d" horiz-adv-x="540" d="M54 238Q54 296 71 342T117 422T185 472T268 490Q312 490 345 475T416 430L414 520V722H444V0H418L414 64H412Q382 34 342 11T252 -12Q161 -12 108 52T54 238ZM86 238Q86 188 97 148T129 78T182 32T254
16Q296 16 334 37T414 100V396Q373 432 339 447T266 462Q228 462 195 445T138 397T100 325T86 238Z" />
<glyph unicode="e" glyph-name="e" horiz-adv-x="478" d="M54 238Q54 296 71 343T117 422T183 472T260 490Q343 490 391 434T440 270Q440 262 440 255T438 238H86Q86 190 99 150T137 79T196 33T274 16Q315 16 347 28T406 60L420 34Q393 17 360 3T272 -12Q227 -12
188 5T118 54T71 133T54 238ZM410 264Q410 364 369 413T260 462Q228 462 198 448T145 409T106 347T86 264H410Z" />
<glyph unicode="f" glyph-name="f" horiz-adv-x="252" d="M266 692Q251 700 237 703T208 706Q167 706 149 676T130 592V478H244V450H130V0H100V450H34V474L100 478V596Q100 667 129 700T210 734Q241 734 276 718L266 692Z" />
<glyph unicode="g" glyph-name="g" horiz-adv-x="480" d="M86 -98Q86 -146 129 -176T252 -206Q295 -206 329 -195T388 -165T425 -124T438 -76Q438 -34 409 -16T322 2H212Q207 2 191 3T154 10Q118 -14 102 -42T86 -98ZM54 -100Q54 -68 73 -37T126 18V22Q108 33
96 52T84 98Q84 131 102 153T136 186V190Q113 210 95 244T76 322Q76 358 88 388T123 441T175 477T240 490Q260 490 275 487T302 478H462V450H346Q372 429 388 396T404 322Q404 286 392 255T357 201T304 165T240 152Q219 152 197 157T158 174Q141 160 129 143T116
100Q116 86 120 74T135 53T164 39T210 34H316Q396 34 433 8T470 -74Q470 -104 455 -133T411 -184T341 -220T250 -234Q158 -234 106 -197T54 -100ZM240 180Q266 180 290 190T332 219T361 264T372 322Q372 354 362 380T333 424T291 452T240 462Q213 462 189 452T147
424T119 380T108 322Q108 290 119 264T148 220T190 191T240 180Z" />
<glyph unicode="h" glyph-name="h" horiz-adv-x="522" d="M96 722H126V508V400Q165 439 204 464T294 490Q368 490 403 446T438 308V0H408V304Q408 384 381 423T292 462Q247 462 210 438T126 366V0H96V722Z" />
<glyph unicode="i" glyph-name="i" horiz-adv-x="222" d="M112 600Q98 600 88 609T78 634Q78 651 88 659T112 668Q126 668 136 660T146 634Q146 619 136 610T112 600ZM96 478H126V0H96V478Z" />
<glyph unicode="j" glyph-name="j" horiz-adv-x="222" d="M96 478H126V-102Q126 -171 102 -202T28 -234Q13 -234 -3 -231T-30 -222L-22 -196Q-13 -199 1 -202T30 -206Q51 -206 64 -198T84 -176T93 -141T96 -98V478ZM112 600Q98 600 88 609T78 634Q78 651 88 659T112
668Q126 668 136 660T146 634Q146 619 136 610T112 600Z" />
<glyph unicode="k" glyph-name="k" horiz-adv-x="452" d="M96 722H126V174H128L376 478H412L258 290L440 0H406L240 266L126 132V0H96V722Z" />
<glyph unicode="l" glyph-name="l" horiz-adv-x="230" d="M96 722H126V46Q126 16 146 16Q149 16 152 16T164 18L170 -8Q164 -10 159 -11T144 -12Q121 -12 109 2T96 52V722Z" />
<glyph unicode="m" glyph-name="m" horiz-adv-x="806" d="M96 478H122L126 402H128Q161 440 201 465T280 490Q339 490 369 463T412 390Q454 437 494 463T576 490Q647 490 682 446T718 308V0H688V304Q688 384 661 423T574 462Q538 462 501 438T422 366V0H392V304Q392
384 365 423T278 462Q210 462 126 366V0H96V478Z" />
<glyph unicode="n" glyph-name="n" horiz-adv-x="526" d="M96 478H122L126 402H128Q166 440 205 465T294 490Q368 490 403 446T438 308V0H408V304Q408 384 381 423T292 462Q247 462 210 438T126 366V0H96V478Z" />
<glyph unicode="o" glyph-name="o" horiz-adv-x="532" d="M54 238Q54 298 71 345T117 424T184 473T266 490Q309 490 347 473T415 424T461 345T478 238Q478 179 461 133T415 54T348 5T266 -12Q223 -12 185 5T117 54T71 132T54 238ZM86 238Q86 188 100 148T138 78T195
32T266 16Q304 16 337 32T394 77T432 147T446 238Q446 287 432 328T394 399T337 445T266 462Q228 462 195 446T138 400T100 329T86 238Z" />
<glyph unicode="p" glyph-name="p" horiz-adv-x="540" d="M126 -42V-222H96V478H122L126 416H128Q164 445 206 467T294 490Q391 490 438 424T486 246Q486 185 469 137T423 56T356 6T274 -12Q239 -12 202 3T126 48V-42ZM126 82Q170 46 208 31T276 16Q315 16 347
33T404 80T441 153T454 246Q454 292 446 331T418 400T367 445T292 462Q254 462 214 441T126 378V82Z" />
<glyph unicode="q" glyph-name="q" horiz-adv-x="532" d="M54 238Q54 296 71 342T117 422T185 472T268 490Q312 490 344 475T412 434H414L418 478H444V-222H414V-32L416 64Q383 34 343 11T252 -12Q161 -12 108 52T54 238ZM86 238Q86 188 97 148T129 78T182 32T254
16Q296 16 334 37T414 100V396Q373 432 339 447T266 462Q228 462 195 445T138 397T100 325T86 238Z" />
<glyph unicode="r" glyph-name="r" horiz-adv-x="306" d="M96 478H122L126 388H128Q152 432 186 461T264 490Q276 490 287 488T310 480L302 452Q290 457 282 458T260 460Q227 460 191 432T126 332V0H96V478Z" />
<glyph unicode="s" glyph-name="s" horiz-adv-x="400" d="M54 78Q84 52 120 34T210 16Q240 16 263 24T301 47T324 79T332 118Q332 142 321 159T293 190T255 213T212 230Q184 240 157 251T107 277T70 313T56 366Q56 391 65 413T94 453T141 480T206 490Q242 490
277 477T338 442L320 418Q296 436 269 449T204 462Q174 462 152 454T116 433T95 403T88 368Q88 346 98 331T124 304T161 283T204 266Q232 255 261 244T312 218T349 179T364 120Q364 94 354 70T324 28T275 -1T208 -12Q154 -12 110 7T34 54L54 78Z" />
<glyph unicode="t" glyph-name="t" horiz-adv-x="302" d="M106 450H30V474L106 478L110 618H136V478H278V450H136V122Q136 99 139 80T152 46T177 24T220 16Q234 16 251 21T282 32L292 6Q271 -2 251 -7T218 -12Q185 -12 164 -2T129 26T111 69T106 126V450Z" />
<glyph unicode="u" glyph-name="u" horiz-adv-x="524" d="M88 478H118V174Q118 94 145 55T234 16Q279 16 316 41T398 120V478H428V0H402L398 82H396Q360 40 321 14T232 -12Q158 -12 123 32T88 170V478Z" />
<glyph unicode="v" glyph-name="v" horiz-adv-x="422" d="M12 478H46L160 168Q172 133 185 99T210 32H214Q226 64 239 98T264 168L378 478H410L230 0H194L12 478Z" />
<glyph unicode="w" glyph-name="w" horiz-adv-x="672" d="M24 478H58L150 156Q159 123 167 93T184 30H188Q197 62 206 92T224 156L316 478H358L450 156Q459 123 468 93T486 30H490Q499 62 508 92T526 156L616 478H648L508 0H466L376 312Q365 347 357 380T338 448H334Q325
413 316 379T294 310L206 0H168L24 478Z" />
<glyph unicode="x" glyph-name="x" horiz-adv-x="392" d="M178 250L28 478H62L144 350Q156 330 169 311T196 272H200Q214 292 226 311T252 350L332 478H364L214 248L378 0H344L254 138Q240 161 226 183T196 226H192Q177 205 163 183T134 138L46 0H14L178 250Z" />
<glyph unicode="y" glyph-name="y" horiz-adv-x="424" d="M28 -184Q36 -187 46 -189T68 -192Q113 -192 144 -154T196 -56L210 -12L12 478H46L168 164Q180 134 194 98T222 30H226Q238 62 249 98T272 164L380 478H412L220 -68Q211 -96 198 -123T165 -173T122 -208T66
-222Q40 -222 20 -212L28 -184V-184Z" />
<glyph unicode="z" glyph-name="z" horiz-adv-x="396" d="M26 16L320 450H58V478H360V462L66 28H370V0H26V16Z" />
<glyph unicode="{" glyph-name="braceleft" horiz-adv-x="270" d="M252 -130V-152H222Q195 -152 175 -147T141 -127T121 -88T114 -26Q114 30 118 80T122 184Q122 200 119 214T106 240T79 259T36 266V290Q62 290 79 297T105 315T118 340T122 370Q122 424 118 475T114
582Q114 619 120 643T140 682T174 702T222 708H252V686H220Q172 686 156 659T140 578Q140 528 143 483T146 382Q146 340 137 315T98 280V276Q127 267 136 241T146 174Q146 118 143 73T140 -22Q140 -76 156 -103T220 -130H252Z" />
<glyph unicode="|" glyph-name="bar" horiz-adv-x="220" d="M96 750H124V-250H96V750Z" />
<glyph unicode="}" glyph-name="braceright" horiz-adv-x="270" d="M50 -130Q98 -130 114 -103T130 -22Q130 28 127 73T124 174Q124 215 133 241T172 276V280Q143 289 134 314T124 382Q124 438 127 483T130 578Q130 632 114 659T50 686H18V708H48Q75 708 95 703T128
683T149 644T156 582Q156 526 152 475T148 370Q148 355 151 341T164 315T191 297T234 290V266Q208 266 191 259T165 241T152 215T148 184Q148 131 152 81T156 -26Q156 -64 149 -88T129 -126T95 -146T48 -152H18V-130H50Z" />
<glyph unicode="~" glyph-name="asciitilde" horiz-adv-x="472" d="M42 310Q62 351 89 370T146 390Q174 390 198 376T243 344T285 313T328 298Q351 298 370 312T408 362L430 348Q410 309 383 290T326 270Q297 270 274 284T229 316T187 347T144 362Q121 362 102
348T64 298L42 310Z" />
<glyph unicode="&#xa0;" glyph-name="uni00A0" horiz-adv-x="198" />
<glyph unicode="&#xa1;" glyph-name="exclamdown" horiz-adv-x="248" d="M140 -130V-192H108V-130L112 306H136L140 -130ZM160 452Q160 432 149 422T124 412Q110 412 99 422T88 452Q88 470 99 480T124 490Q138 490 149 480T160 452Z" />
<glyph unicode="&#xa2;" glyph-name="cent" horiz-adv-x="472" d="M252 510Q218 506 189 490T139 448T106 388T94 312Q94 270 105 236T137 175T187 133T252 113V510ZM428 148Q399 122 362 104T280 84V-26H252V85Q211 89 176 105T116 151T76 220T62 312Q62 364
77 404T118 473T178 518T252 539V652H280V540Q328 539 360 521T416 480L398 460Q375 482 346 496T280 512V112Q319 113 352 129T410 168L428 148Z" />
<glyph unicode="&#xa3;" glyph-name="sterling" horiz-adv-x="472" d="M418 28V0H58V18Q115 51 139 105T164 218Q164 238 162 257T154 296H54V322L120 324H146Q135 365 124 404T112 486Q112 563 155 607T276 652Q327 652 361 631T416 582L394 562Q373 588 345
606T274 624Q242 624 218 613T177 584T152 541T144 488Q144 445 156 406T179 324H346V296H185Q194 260 194 218Q194 152 174 110T118 32V28H418Z" />
<glyph unicode="&#xa4;" glyph-name="currency" horiz-adv-x="472" d="M32 140L98 208Q80 232 70 262T60 328Q60 365 70 396T98 451L32 520L52 542L118 473Q141 496 171 508T236 520Q269 520 299 508T354 473L420 542L440 520L373 451Q391 427 401 396T412 328Q412
293 402 263T374 208L440 140L420 118L354 186Q331 163 300 151T236 138Q167 138 117 186L52 118L32 140ZM92 328Q92 292 103 262T134 211T180 178T236 166Q265 166 291 178T337 211T368 262T380 328Q380 364 369 394T338 446T292 480T236 492Q207 492 181 480T135
446T104 394T92 328Z" />
<glyph unicode="&#xa5;" glyph-name="yen" horiz-adv-x="472" d="M66 640L166 438Q183 405 199 372T234 300H238Q258 338 274 371T308 438L408 640H440L262 298H420V270H250V196H420V168H250V0H220V168H52V196H220V270H52V298H208L32 640H66Z" />
<glyph unicode="&#xa6;" glyph-name="brokenbar" horiz-adv-x="220" d="M96 750H124V274H96V750ZM124 222V-250H96V222H124Z" />
<glyph unicode="&#xa7;" glyph-name="section" horiz-adv-x="472" d="M309 176Q328 185 343 194T368 216T384 244T390 282Q390 325 367 351T309 396T235 431T165 468Q128 448 105 424T82 358Q82 316 105 291T164 247T238 214T309 176ZM354 606Q330 626 304 639T238
652Q211 652 192 645T161 626T144 600T138 570Q138 535 159 514T211 476T279 445T347 410T399 360T420 284Q420 233 396 205T333 157Q349 141 358 121T368 72Q368 46 357 24T326 -14T283 -39T232 -48Q181 -48 143 -31T76 12L98 34Q124 10 154 -5T232 -20Q280 -20
309 7T338 70Q338 106 317 128T264 167T195 198T126 233T73 281T52 356Q52 405 78 435T142 487Q126 502 117 522T108 568Q108 587 115 607T139 643T179 670T238 680Q277 680 311 666T372 628L354 606Z" />
<glyph unicode="&#xa8;" glyph-name="dieresis" horiz-adv-x="532" d="M190 602Q176 602 167 611T158 634Q158 648 167 657T190 666Q204 666 213 657T222 634Q222 620 213 611T190 602ZM342 602Q328 602 319 611T310 634Q310 648 319 657T342 666Q356 666 365
657T374 634Q374 620 365 611T342 602Z" />
<glyph unicode="&#xa9;" glyph-name="copyright" horiz-adv-x="740" d="M52 322Q52 397 77 458T146 562T247 628T370 652Q434 652 492 629T593 562T662 458T688 322Q688 246 663 185T594 80T492 12T370 -12Q305 -12 248 12T147 79T78 184T52 322ZM82 322Q82 253
105 196T168 99T260 36T370 14Q428 14 480 36T571 98T634 196T658 322Q658 390 635 446T572 542T480 604T370 626Q312 626 260 604T169 542T106 446T82 322ZM202 322Q202 365 216 399T255 458T312 495T380 508Q419 508 446 493T498 454L480 432Q456 455 433 466T378
478Q347 478 321 467T276 436T247 386T236 322Q236 244 274 199T376 154Q414 154 443 169T496 206L512 184Q485 159 454 142T374 124Q339 124 308 137T254 175T216 238T202 322Z" />
<glyph unicode="&#xaa;" glyph-name="ordfeminine" horiz-adv-x="334" d="M140 262Q98 262 71 285T44 352Q44 404 94 431T252 470Q252 490 249 508T238 539T216 560T180 568Q148 568 118 555T70 530L58 552Q76 564 109 579T182 594Q239 594 259 560T280 472V270H258L252
310H248Q227 292 200 277T140 262ZM146 288Q170 288 196 300T252 340V448Q153 437 114 414T74 354Q74 319 93 304T146 288Z" />
<glyph unicode="&#xab;" glyph-name="guillemotleft" horiz-adv-x="388" d="M42 238V266L180 430L200 412L76 252L200 90L180 74L42 238ZM176 238V266L314 430L334 412L210 252L334 90L314 74L176 238Z" />
<glyph unicode="&#xac;" glyph-name="logicalnot" horiz-adv-x="472" d="M34 344H438V112H406V316H34V344Z" />
<glyph unicode="&#xad;" glyph-name="uni00AD" horiz-adv-x="294" d="M40 264H256V234H40V264Z" />
<glyph unicode="&#xae;" glyph-name="registered" horiz-adv-x="392" d="M196 326Q159 326 127 339T70 378T31 439T16 518Q16 561 30 597T69 658T126 698T196 712Q233 712 265 698T322 659T361 597T376 518Q376 474 362 439T323 379T266 340T196 326ZM196 352Q227
352 255 364T303 399T336 451T348 518Q348 554 336 584T304 637T255 673T196 686Q164 686 137 673T89 638T56 585T44 518Q44 482 56 452T88 399T136 365T196 352ZM130 626H196Q210 626 224 623T248 613T265 593T272 562Q272 542 261 527T232 506L282 418H248L208
496H158V418H130V626ZM188 522Q212 522 227 530T242 560Q242 578 232 589T192 600H158V522H188Z" />
<glyph unicode="&#xaf;" glyph-name="overscore" horiz-adv-x="532" d="M156 636H376V608H156V636Z" />
<glyph unicode="&#xb0;" glyph-name="degree" horiz-adv-x="304" d="M152 454Q131 454 111 461T76 484T52 520T42 568Q42 596 51 617T76 654T111 676T152 684Q173 684 193 677T228 654T252 618T262 568Q262 541 253 520T228 484T193 462T152 454ZM152 480Q188
480 211 505T234 568Q234 607 211 632T152 658Q116 658 93 633T70 568Q70 530 93 505T152 480Z" />
<glyph unicode="&#xb1;" glyph-name="plusminus" horiz-adv-x="472" d="M220 312H34V340H220V548H252V340H438V312H252V102H220V312ZM34 28H438V0H34V28Z" />
<glyph unicode="&#xb2;" glyph-name="two.sups" horiz-adv-x="360" d="M58 460Q110 509 147 545T208 612T243 667T254 718Q254 763 230 789T164 816Q135 816 111 797T70 752L50 770Q67 799 98 820T166 842Q219 842 251 812T284 720Q284 688 271 659T235 600T179
538T106 466H308V440H58V460Z" />
<glyph unicode="&#xb3;" glyph-name="three.sups" horiz-adv-x="360" d="M66 520Q84 491 113 473T178 454Q217 454 245 477T274 542Q274 583 235 604T130 626V650Q192 650 225 676T258 738Q258 773 235 794T170 816Q146 816 122 801T78 762L58 780Q78 806 107
824T172 842Q220 842 254 815T288 740Q288 702 266 677T210 640Q246 634 275 609T304 542Q304 488 267 458T176 428Q131 428 97 450T42 502L66 520Z" />
<glyph unicode="&#xb4;" glyph-name="acute" horiz-adv-x="532" d="M242 572H214L306 706H346L242 572Z" />
<glyph unicode="&#xb5;" glyph-name="uni00B5" horiz-adv-x="532" d="M96 478H126V174Q126 94 153 55T242 16Q287 16 324 41T406 120V478H436V0H410L406 82H404Q368 40 329 14T240 -12Q201 -12 173 0T124 48L126 -42V-200H96V478Z" />
<glyph unicode="&#xb6;" glyph-name="paragraph" horiz-adv-x="498" d="M370 660H402V-80H370V660ZM290 250Q234 250 189 261T111 296T60 359T42 454Q42 509 59 548T106 612T178 648T272 660H316V250H290Z" />
<glyph unicode="&#xb7;" glyph-name="middot" horiz-adv-x="208" d="M68 322Q68 342 79 352T104 362Q118 362 129 352T140 322Q140 304 129 294T104 284Q90 284 79 294T68 322Z" />
<glyph unicode="&#xb8;" glyph-name="cedilla" horiz-adv-x="532" d="M272 2H300L270 -56Q294 -64 312 -79T330 -124Q330 -143 320 -157T294 -181T256 -197T212 -206L206 -180Q248 -174 274 -162T300 -128Q300 -104 281 -93T232 -74L272 2Z" />
<glyph unicode="&#xb9;" glyph-name="one.sups" horiz-adv-x="360" d="M178 770H96V792Q148 803 180 830H206V440H178V770Z" />
<glyph unicode="&#xba;" glyph-name="ordmasculine" horiz-adv-x="358" d="M178 262Q148 262 122 273T76 306T45 358T34 428Q34 468 45 499T75 551T121 583T178 594Q208 594 234 583T279 551T310 499T322 428Q322 389 311 358T280 306T234 274T178 262ZM178 288Q229
288 260 327T292 428Q292 491 261 529T178 568Q127 568 96 530T64 428Q64 366 95 327T178 288Z" />
<glyph unicode="&#xbb;" glyph-name="guillemotright" horiz-adv-x="388" d="M178 252L54 412L74 430L212 266V238L74 74L54 90L178 252ZM312 252L188 412L208 430L346 266V238L208 74L188 90L312 252Z" />
<glyph unicode="&#xbc;" glyph-name="onequarter" horiz-adv-x="758" d="M159 600H77V622Q129 633 161 660H187V270H159V600ZM176 -12L546 672H578L208 -12H176ZM622 144V238L626 340H622L564 256L486 144H622ZM708 118H650V0H622V118H446V134L628 390H650V144H708V118Z" />
<glyph unicode="&#xbd;" glyph-name="onehalf" horiz-adv-x="778" d="M159 600H77V622Q129 633 161 660H187V270H159V600ZM152 -12L522 672H554L184 -12H152ZM476 20Q528 69 565 105T626 172T661 227T672 278Q672 323 648 349T582 376Q553 376 529 357T488 312L468
330Q485 359 516 380T584 402Q637 402 669 372T702 280Q702 248 689 219T653 160T597 98T524 26H726V0H476V20Z" />
<glyph unicode="&#xbe;" glyph-name="threequarters" horiz-adv-x="778" d="M66 350Q84 321 113 303T178 284Q217 284 245 307T274 372Q274 413 235 434T130 456V480Q192 480 225 506T258 568Q258 603 235 624T170 646Q146 646 122 631T78 592L58 610Q78 636 107
654T172 672Q220 672 254 645T288 570Q288 532 266 507T210 470Q246 464 275 439T304 372Q304 318 267 288T176 258Q131 258 97 280T42 332L66 350ZM226 -12L596 672H628L258 -12H226ZM642 144V238L646 340H642L584 256L506 144H642ZM728 118H670V0H642V118H466V134L648
390H670V144H728V118Z" />
<glyph unicode="&#xbf;" glyph-name="questiondown" horiz-adv-x="394" d="M230 306Q235 264 227 230T202 167T166 112T127 61T97 8T84 -52Q84 -76 91 -98T112 -138T149 -165T204 -176Q242 -176 277 -159T338 -110L358 -128Q329 -160 291 -182T202 -204Q166 -204
138 -192T91 -160T62 -112T52 -54Q52 -19 64 10T95 66T134 119T172 173T198 234T202 306H230ZM248 452Q248 432 237 422T212 412Q198 412 187 422T176 452Q176 470 187 480T212 490Q226 490 237 480T248 452Z" />
<glyph unicode="&#xc0;" glyph-name="Agrave" horiz-adv-x="520" d="M384 264L338 396Q317 456 299 510T262 626H258Q240 564 222 510T182 396L135 264H384ZM394 236H125L42 0H10L246 660H274L510 0H476L394 236ZM154 814H198L292 710H262L154 814Z" />
<glyph unicode="&#xc1;" glyph-name="Aacute" horiz-adv-x="520" d="M384 264L338 396Q317 456 299 510T262 626H258Q240 564 222 510T182 396L135 264H384ZM394 236H125L42 0H10L246 660H274L510 0H476L394 236ZM258 710H228L322 814H366L258 710Z" />
<glyph unicode="&#xc2;" glyph-name="Acircumflex" horiz-adv-x="520" d="M384 264L338 396Q317 456 299 510T262 626H258Q240 564 222 510T182 396L135 264H384ZM394 236H125L42 0H10L246 660H274L510 0H476L394 236ZM150 710L246 814H274L370 710H340L262 784H258L180
710H150Z" />
<glyph unicode="&#xc3;" glyph-name="Atilde" horiz-adv-x="520" d="M384 264L338 396Q317 456 299 510T262 626H258Q240 564 222 510T182 396L135 264H384ZM394 236H125L42 0H10L246 660H274L510 0H476L394 236ZM318 718Q298 718 284 727T256 747T229 767T200
776Q183 776 172 760T158 718H136Q137 732 141 747T153 775T173 796T202 804Q221 804 236 795T264 775T291 755T320 746Q337 746 348 762T362 804H384Q383 790 379 775T367 747T347 726T318 718Z" />
<glyph unicode="&#xc4;" glyph-name="Adieresis" horiz-adv-x="520" d="M384 264L338 396Q317 456 299 510T262 626H258Q240 564 222 510T182 396L135 264H384ZM394 236H125L42 0H10L246 660H274L510 0H476L394 236ZM184 728Q170 728 161 736T152 760Q152 775
161 783T184 792Q198 792 207 784T216 760Q216 745 207 737T184 728ZM336 728Q322 728 313 736T304 760Q304 775 313 783T336 792Q350 792 359 784T368 760Q368 745 359 737T336 728Z" />
<glyph unicode="&#xc5;" glyph-name="Aring" horiz-adv-x="520" d="M384 264L338 396Q317 456 299 510T262 626H258Q240 564 222 510T182 396L135 264H384ZM394 236H125L42 0H10L246 660H274L510 0H476L394 236ZM260 700Q227 700 205 722T182 780Q182 816 204
838T260 860Q292 860 315 838T338 780Q338 744 315 722T260 700ZM260 722Q281 722 296 736T312 780Q312 807 297 822T260 838Q237 838 222 823T206 780Q206 751 221 737T260 722Z" />
<glyph unicode="&#xc6;" glyph-name="AE" horiz-adv-x="804" d="M414 254V630H410Q378 573 346 514T280 392L203 254H414ZM758 28V0H414V226H187L60 0H26L398 660H748V632H446V366H696V338H446V28H758Z" />
<glyph unicode="&#xc7;" glyph-name="Ccedilla" horiz-adv-x="562" d="M56 332Q56 410 76 473T132 580T219 648T334 672Q391 672 433 648T502 594L482 572Q455 604 418 623T334 642Q277 642 232 621T155 559T107 461T90 332Q90 261 106 203T154 104T230 41T330
18Q383 18 423 39T502 102L522 82Q484 38 439 13T328 -12Q267 -12 217 12T131 82T76 190T56 332ZM334 2H362L332 -56Q356 -64 374 -79T392 -124Q392 -143 382 -157T356 -181T318 -197T274 -206L268 -180Q310 -174 336 -162T362 -128Q362 -104 343 -93T294 -74L334
2Z" />
<glyph unicode="&#xc8;" glyph-name="Egrave" horiz-adv-x="510" d="M100 660H454V632H132V366H402V338H132V28H464V0H100V660ZM175 814H219L313 710H283L175 814Z" />
<glyph unicode="&#xc9;" glyph-name="Eacute" horiz-adv-x="510" d="M100 660H454V632H132V366H402V338H132V28H464V0H100V660ZM279 710H249L343 814H387L279 710Z" />
<glyph unicode="&#xca;" glyph-name="Ecircumflex" horiz-adv-x="510" d="M100 660H454V632H132V366H402V338H132V28H464V0H100V660ZM171 710L267 814H295L391 710H361L283 784H279L201 710H171Z" />
<glyph unicode="&#xcb;" glyph-name="Edieresis" horiz-adv-x="510" d="M100 660H454V632H132V366H402V338H132V28H464V0H100V660ZM205 728Q191 728 182 736T173 760Q173 775 182 783T205 792Q219 792 228 784T237 760Q237 745 228 737T205 728ZM357 728Q343 728
334 736T325 760Q325 775 334 783T357 792Q371 792 380 784T389 760Q389 745 380 737T357 728Z" />
<glyph unicode="&#xcc;" glyph-name="Igrave" horiz-adv-x="232" d="M100 660H132V0H100V660ZM10 814H54L148 710H118L10 814Z" />
<glyph unicode="&#xcd;" glyph-name="Iacute" horiz-adv-x="232" d="M100 660H132V0H100V660ZM114 710H84L178 814H222L114 710Z" />
<glyph unicode="&#xce;" glyph-name="Icircumflex" horiz-adv-x="232" d="M100 660H132V0H100V660ZM6 710L102 814H130L226 710H196L118 784H114L36 710H6Z" />
<glyph unicode="&#xcf;" glyph-name="Idieresis" horiz-adv-x="232" d="M100 660H132V0H100V660ZM40 728Q26 728 17 736T8 760Q8 775 17 783T40 792Q54 792 63 784T72 760Q72 745 63 737T40 728ZM192 728Q178 728 169 736T160 760Q160 775 169 783T192 792Q206
792 215 784T224 760Q224 745 215 737T192 728Z" />
<glyph unicode="&#xd0;" glyph-name="Eth" horiz-adv-x="620" d="M264 28Q334 28 384 51T467 114T515 211T530 332Q530 397 515 452T468 547T385 609T264 632H152V364H320V336H152V28H264ZM268 660Q344 660 400 637T492 570T546 466T564 332Q564 258 547 197T493
93T400 25T268 0H120V336H38V362L120 364V660H268Z" />
<glyph unicode="&#xd1;" glyph-name="Ntilde" horiz-adv-x="632" d="M100 660H134L426 176L502 46H506Q504 94 503 139T502 232V660H532V0H498L206 484L130 614H126Q128 567 129 524T130 434V0H100V660ZM379 718Q359 718 345 727T317 747T290 767T261 776Q244
776 233 760T219 718H197Q198 732 202 747T214 775T234 796T263 804Q282 804 297 795T325 775T352 755T381 746Q398 746 409 762T423 804H445Q444 790 440 775T428 747T408 726T379 718Z" />
<glyph unicode="&#xd2;" glyph-name="Ograve" horiz-adv-x="648" d="M324 -12Q265 -12 216 12T132 82T76 190T56 332Q56 410 76 473T131 580T216 648T324 672Q382 672 431 648T516 580T572 473T592 332Q592 254 572 191T517 82T432 13T324 -12ZM324 18Q376 18
419 40T493 104T541 203T558 332Q558 403 541 460T494 558T420 620T324 642Q271 642 228 621T155 559T107 461T90 332Q90 261 107 203T154 104T228 41T324 18ZM218 814H262L356 710H326L218 814Z" />
<glyph unicode="&#xd3;" glyph-name="Oacute" horiz-adv-x="648" d="M324 -12Q265 -12 216 12T132 82T76 190T56 332Q56 410 76 473T131 580T216 648T324 672Q382 672 431 648T516 580T572 473T592 332Q592 254 572 191T517 82T432 13T324 -12ZM324 18Q376 18
419 40T493 104T541 203T558 332Q558 403 541 460T494 558T420 620T324 642Q271 642 228 621T155 559T107 461T90 332Q90 261 107 203T154 104T228 41T324 18ZM322 710H292L386 814H430L322 710Z" />
<glyph unicode="&#xd4;" glyph-name="Ocircumflex" horiz-adv-x="648" d="M324 -12Q265 -12 216 12T132 82T76 190T56 332Q56 410 76 473T131 580T216 648T324 672Q382 672 431 648T516 580T572 473T592 332Q592 254 572 191T517 82T432 13T324 -12ZM324 18Q376
18 419 40T493 104T541 203T558 332Q558 403 541 460T494 558T420 620T324 642Q271 642 228 621T155 559T107 461T90 332Q90 261 107 203T154 104T228 41T324 18ZM214 710L310 814H338L434 710H404L326 784H322L244 710H214Z" />
<glyph unicode="&#xd5;" glyph-name="Otilde" horiz-adv-x="648" d="M324 -12Q265 -12 216 12T132 82T76 190T56 332Q56 410 76 473T131 580T216 648T324 672Q382 672 431 648T516 580T572 473T592 332Q592 254 572 191T517 82T432 13T324 -12ZM324 18Q376 18
419 40T493 104T541 203T558 332Q558 403 541 460T494 558T420 620T324 642Q271 642 228 621T155 559T107 461T90 332Q90 261 107 203T154 104T228 41T324 18ZM382 718Q362 718 348 727T320 747T293 767T264 776Q247 776 236 760T222 718H200Q201 732 205 747T217
775T237 796T266 804Q285 804 300 795T328 775T355 755T384 746Q401 746 412 762T426 804H448Q447 790 443 775T431 747T411 726T382 718Z" />
<glyph unicode="&#xd6;" glyph-name="Odieresis" horiz-adv-x="648" d="M324 -12Q265 -12 216 12T132 82T76 190T56 332Q56 410 76 473T131 580T216 648T324 672Q382 672 431 648T516 580T572 473T592 332Q592 254 572 191T517 82T432 13T324 -12ZM324 18Q376
18 419 40T493 104T541 203T558 332Q558 403 541 460T494 558T420 620T324 642Q271 642 228 621T155 559T107 461T90 332Q90 261 107 203T154 104T228 41T324 18ZM248 728Q234 728 225 736T216 760Q216 775 225 783T248 792Q262 792 271 784T280 760Q280 745 271
737T248 728ZM400 728Q386 728 377 736T368 760Q368 775 377 783T400 792Q414 792 423 784T432 760Q432 745 423 737T400 728Z" />
<glyph unicode="&#xd7;" glyph-name="multiply" horiz-adv-x="472" d="M52 160L216 330L52 500L72 522L236 350L400 522L420 500L256 330L420 160L400 138L236 310L72 138L52 160Z" />
<glyph unicode="&#xd8;" glyph-name="Oslash" horiz-adv-x="648" d="M165 95Q196 58 237 38T328 18Q380 18 423 40T497 104T545 203T562 332Q562 401 547 456T503 551L165 95ZM485 573Q424 642 328 642Q275 642 232 621T159 559T111 461T94 332Q94 266 108 213T148
118L485 573ZM522 578Q557 533 576 472T596 332Q596 254 576 191T521 82T436 13T328 -12Q274 -12 228 9T146 69L80 -20L58 -4L128 91Q96 136 78 196T60 332Q60 410 80 473T135 580T220 648T328 672Q380 672 424 653T504 599L564 680L586 664L522 578Z" />
<glyph unicode="&#xd9;" glyph-name="Ugrave" horiz-adv-x="630" d="M98 660H130V254Q130 186 145 141T185 68T244 30T314 18Q351 18 385 29T445 68T486 140T502 254V660H532V246Q532 169 513 120T463 41T393 0T314 -12Q274 -12 236 -1T167 40T117 119T98 246V660ZM209
814H253L347 710H317L209 814Z" />
<glyph unicode="&#xda;" glyph-name="Uacute" horiz-adv-x="630" d="M98 660H130V254Q130 186 145 141T185 68T244 30T314 18Q351 18 385 29T445 68T486 140T502 254V660H532V246Q532 169 513 120T463 41T393 0T314 -12Q274 -12 236 -1T167 40T117 119T98 246V660ZM313
710H283L377 814H421L313 710Z" />
<glyph unicode="&#xdb;" glyph-name="Ucircumflex" horiz-adv-x="630" d="M98 660H130V254Q130 186 145 141T185 68T244 30T314 18Q351 18 385 29T445 68T486 140T502 254V660H532V246Q532 169 513 120T463 41T393 0T314 -12Q274 -12 236 -1T167 40T117 119T98
246V660ZM205 710L301 814H329L425 710H395L317 784H313L235 710H205Z" />
<glyph unicode="&#xdc;" glyph-name="Udieresis" horiz-adv-x="630" d="M98 660H130V254Q130 186 145 141T185 68T244 30T314 18Q351 18 385 29T445 68T486 140T502 254V660H532V246Q532 169 513 120T463 41T393 0T314 -12Q274 -12 236 -1T167 40T117 119T98 246V660ZM239
728Q225 728 216 736T207 760Q207 775 216 783T239 792Q253 792 262 784T271 760Q271 745 262 737T239 728ZM391 728Q377 728 368 736T359 760Q359 775 368 783T391 792Q405 792 414 784T423 760Q423 745 414 737T391 728Z" />
<glyph unicode="&#xdd;" glyph-name="Yacute" horiz-adv-x="436" d="M202 272L4 660H38L144 446Q162 410 179 375T216 304H220Q240 340 258 375T294 446L400 660H432L234 272V0H202V272ZM216 710H186L280 814H324L216 710Z" />
<glyph unicode="&#xde;" glyph-name="Thorn" horiz-adv-x="556" d="M100 660H132V540H272Q383 540 443 500T504 360Q504 265 444 219T272 172H132V0H100V660ZM260 200Q367 200 418 237T470 360Q470 447 418 479T260 512H132V200H260Z" />
<glyph unicode="&#xdf;" glyph-name="germandbls" horiz-adv-x="530" d="M96 538Q96 630 141 681T258 732Q288 732 312 722T353 695T379 654T388 602Q388 563 372 535T337 483T302 434T286 378Q286 348 302 329T341 296T393 269T444 238T484 193T500 124Q500 95
490 70T460 27T416 -1T360 -12Q321 -12 287 2T226 40L244 64Q273 40 300 28T360 16Q387 16 407 25T440 49T461 83T468 122Q468 159 452 182T413 221T361 249T310 278T270 316T254 376Q254 413 270 440T305 491T340 540T356 600Q356 645 331 674T256 704Q197 704
162 661T126 524V0H96V538Z" />
<glyph unicode="&#xe0;" glyph-name="agrave" horiz-adv-x="494" d="M68 117Q68 197 144 238T382 298Q383 327 379 356T361 409T325 447T264 462Q238 462 215 457T172 442T136 423T108 404L92 428Q103 436 120 447T160 467T210 483T266 490Q308 490 336 476T381
436T405 379T412 310V0H386L382 64H380Q342 34 298 11T206 -12Q178 -12 153 -5T109 18T79 58T68 117ZM100 118Q100 90 108 71T132 39T166 22T208 16Q252 16 293 36T382 98V272Q303 263 249 250T162 217T115 174T100 118ZM180 706H220L312 572H284L180 706Z" />
<glyph unicode="&#xe1;" glyph-name="aacute" horiz-adv-x="494" d="M68 117Q68 197 144 238T382 298Q383 327 379 356T361 409T325 447T264 462Q238 462 215 457T172 442T136 423T108 404L92 428Q103 436 120 447T160 467T210 483T266 490Q308 490 336 476T381
436T405 379T412 310V0H386L382 64H380Q342 34 298 11T206 -12Q178 -12 153 -5T109 18T79 58T68 117ZM100 118Q100 90 108 71T132 39T166 22T208 16Q252 16 293 36T382 98V272Q303 263 249 250T162 217T115 174T100 118ZM236 572H208L300 706H340L236 572Z" />
<glyph unicode="&#xe2;" glyph-name="acircumflex" horiz-adv-x="494" d="M68 117Q68 197 144 238T382 298Q383 327 379 356T361 409T325 447T264 462Q238 462 215 457T172 442T136 423T108 404L92 428Q103 436 120 447T160 467T210 483T266 490Q308 490 336 476T381
436T405 379T412 310V0H386L382 64H380Q342 34 298 11T206 -12Q178 -12 153 -5T109 18T79 58T68 117ZM100 118Q100 90 108 71T132 39T166 22T208 16Q252 16 293 36T382 98V272Q303 263 249 250T162 217T115 174T100 118ZM246 706H274L368 572H340L262 674H258L180
572H152L246 706Z" />
<glyph unicode="&#xe3;" glyph-name="atilde" horiz-adv-x="494" d="M68 117Q68 197 144 238T382 298Q383 327 379 356T361 409T325 447T264 462Q238 462 215 457T172 442T136 423T108 404L92 428Q103 436 120 447T160 467T210 483T266 490Q308 490 336 476T381
436T405 379T412 310V0H386L382 64H380Q342 34 298 11T206 -12Q178 -12 153 -5T109 18T79 58T68 117ZM100 118Q100 90 108 71T132 39T166 22T208 16Q252 16 293 36T382 98V272Q303 263 249 250T162 217T115 174T100 118ZM142 582Q143 595 146 609T157 636T176 656T206
664Q224 664 238 655T266 636T291 617T316 608Q333 608 342 623T354 664H378Q377 651 374 637T363 610T344 590T314 582Q296 582 282 590T255 609T230 629T204 638Q187 638 178 623T166 582H142V582Z" />
<glyph unicode="&#xe4;" glyph-name="adieresis" horiz-adv-x="494" d="M68 117Q68 197 144 238T382 298Q383 327 379 356T361 409T325 447T264 462Q238 462 215 457T172 442T136 423T108 404L92 428Q103 436 120 447T160 467T210 483T266 490Q308 490 336 476T381
436T405 379T412 310V0H386L382 64H380Q342 34 298 11T206 -12Q178 -12 153 -5T109 18T79 58T68 117ZM100 118Q100 90 108 71T132 39T166 22T208 16Q252 16 293 36T382 98V272Q303 263 249 250T162 217T115 174T100 118ZM184 602Q170 602 161 611T152 634Q152 648
161 657T184 666Q198 666 207 657T216 634Q216 620 207 611T184 602ZM336 602Q322 602 313 611T304 634Q304 648 313 657T336 666Q350 666 359 657T368 634Q368 620 359 611T336 602Z" />
<glyph unicode="&#xe5;" glyph-name="aring" horiz-adv-x="494" d="M68 117Q68 197 144 238T382 298Q383 327 379 356T361 409T325 447T264 462Q238 462 215 457T172 442T136 423T108 404L92 428Q103 436 120 447T160 467T210 483T266 490Q308 490 336 476T381
436T405 379T412 310V0H386L382 64H380Q342 34 298 11T206 -12Q178 -12 153 -5T109 18T79 58T68 117ZM100 118Q100 90 108 71T132 39T166 22T208 16Q252 16 293 36T382 98V272Q303 263 249 250T162 217T115 174T100 118ZM260 538Q227 538 205 561T182 622Q182 660
204 683T260 706Q293 706 315 683T338 622Q338 584 316 561T260 538ZM260 560Q283 560 298 576T314 622Q314 651 299 667T260 684Q237 684 222 668T206 622Q206 593 221 577T260 560Z" />
<glyph unicode="&#xe6;" glyph-name="ae" horiz-adv-x="784" d="M100 118Q100 90 108 71T132 39T166 22T208 16Q249 16 301 42T398 116Q387 139 382 173T376 244V272Q301 263 249 250T163 217T115 174T100 118ZM92 428Q103 436 120 447T160 467T207 483T260 490Q320
490 354 456T400 364Q426 421 471 455T570 490Q653 490 699 434T746 270Q746 262 746 255T744 238H406Q405 190 418 150T456 79T513 33T584 16Q625 16 655 28T712 60L726 34Q712 26 698 18T668 3T630 -8T582 -12Q549 -12 523 -3T476 20T439 53T410 90Q387 67 361
48T307 16T254 -5T206 -12Q178 -12 153 -5T109 18T79 58T68 116Q68 197 144 238T376 298Q377 327 373 356T355 409T319 447T258 462Q235 462 213 457T171 442T135 423T108 404L92 428ZM716 264Q716 364 677 413T570 462Q538 462 510 448T460 407T424 344T406 264H716Z"
/>
<glyph unicode="&#xe7;" glyph-name="ccedilla" horiz-adv-x="446" d="M54 238Q54 298 71 345T118 424T186 473T268 490Q318 490 351 472T408 430L388 408Q364 431 335 446T268 462Q230 462 197 446T139 400T100 329T86 238Q86 188 99 148T136 78T193 32T268 16Q309
16 342 33T402 74L420 52Q390 25 353 7T268 -12Q222 -12 183 5T116 54T71 132T54 238ZM259 2H287L257 -56Q281 -64 299 -79T317 -124Q317 -143 307 -157T281 -181T243 -197T199 -206L193 -180Q235 -174 261 -162T287 -128Q287 -104 268 -93T219 -74L259 2Z" />
<glyph unicode="&#xe8;" glyph-name="egrave" horiz-adv-x="478" d="M54 238Q54 296 71 343T117 422T183 472T260 490Q343 490 391 434T440 270Q440 262 440 255T438 238H86Q86 190 99 150T137 79T196 33T274 16Q315 16 347 28T406 60L420 34Q393 17 360 3T272
-12Q227 -12 188 5T118 54T71 133T54 238ZM410 264Q410 364 369 413T260 462Q228 462 198 448T145 409T106 347T86 264H410ZM180 706H220L312 572H284L180 706Z" />
<glyph unicode="&#xe9;" glyph-name="eacute" horiz-adv-x="478" d="M54 238Q54 296 71 343T117 422T183 472T260 490Q343 490 391 434T440 270Q440 262 440 255T438 238H86Q86 190 99 150T137 79T196 33T274 16Q315 16 347 28T406 60L420 34Q393 17 360 3T272
-12Q227 -12 188 5T118 54T71 133T54 238ZM410 264Q410 364 369 413T260 462Q228 462 198 448T145 409T106 347T86 264H410ZM236 572H208L300 706H340L236 572Z" />
<glyph unicode="&#xea;" glyph-name="ecircumflex" horiz-adv-x="478" d="M54 238Q54 296 71 343T117 422T183 472T260 490Q343 490 391 434T440 270Q440 262 440 255T438 238H86Q86 190 99 150T137 79T196 33T274 16Q315 16 347 28T406 60L420 34Q393 17 360
3T272 -12Q227 -12 188 5T118 54T71 133T54 238ZM410 264Q410 364 369 413T260 462Q228 462 198 448T145 409T106 347T86 264H410ZM246 706H274L368 572H340L262 674H258L180 572H152L246 706Z" />
<glyph unicode="&#xeb;" glyph-name="edieresis" horiz-adv-x="478" d="M54 238Q54 296 71 343T117 422T183 472T260 490Q343 490 391 434T440 270Q440 262 440 255T438 238H86Q86 190 99 150T137 79T196 33T274 16Q315 16 347 28T406 60L420 34Q393 17 360 3T272
-12Q227 -12 188 5T118 54T71 133T54 238ZM410 264Q410 364 369 413T260 462Q228 462 198 448T145 409T106 347T86 264H410ZM184 602Q170 602 161 611T152 634Q152 648 161 657T184 666Q198 666 207 657T216 634Q216 620 207 611T184 602ZM336 602Q322 602 313
611T304 634Q304 648 313 657T336 666Q350 666 359 657T368 634Q368 620 359 611T336 602Z" />
<glyph unicode="&#xec;" glyph-name="igrave" horiz-adv-x="222" d="M96 478H126V0H96V478ZM31 706H71L163 572H135L31 706Z" />
<glyph unicode="&#xed;" glyph-name="iacute" horiz-adv-x="222" d="M96 478H126V0H96V478ZM87 572H59L151 706H191L87 572Z" />
<glyph unicode="&#xee;" glyph-name="icircumflex" horiz-adv-x="222" d="M96 478H126V0H96V478ZM97 706H125L219 572H191L113 674H109L31 572H3L97 706Z" />
<glyph unicode="&#xef;" glyph-name="idieresis" horiz-adv-x="222" d="M96 478H126V0H96V478ZM35 602Q21 602 12 611T3 634Q3 648 12 657T35 666Q49 666 58 657T67 634Q67 620 58 611T35 602ZM187 602Q173 602 164 611T155 634Q155 648 164 657T187 666Q201 666
210 657T219 634Q219 620 210 611T187 602Z" />
<glyph unicode="&#xf0;" glyph-name="eth" horiz-adv-x="532" d="M266 16Q309 16 340 34T392 85T422 159T432 250Q432 285 429 315Q409 345 389 364T348 393T307 408T268 412Q225 412 193 396T138 353T105 291T94 218Q94 174 107 137T144 73T199 31T266 16ZM329
607Q389 546 426 460T464 250Q464 190 450 142T409 59T346 7T266 -12Q227 -12 190 3T125 49T79 121T62 218Q62 267 77 307T119 377T184 423T270 440Q361 440 423 361Q409 439 378 495T303 594L162 520L150 542L283 612Q254 638 222 659T156 700L172 722Q209 702
243 679T310 626L452 700L464 678L329 607Z" />
<glyph unicode="&#xf1;" glyph-name="ntilde" horiz-adv-x="526" d="M96 478H122L126 402H128Q166 440 205 465T294 490Q368 490 403 446T438 308V0H408V304Q408 384 381 423T292 462Q247 462 210 438T126 366V0H96V478ZM161 582Q162 595 165 609T176 636T195
656T225 664Q243 664 257 655T285 636T310 617T335 608Q352 608 361 623T373 664H397Q396 651 393 637T382 610T363 590T333 582Q315 582 301 590T274 609T249 629T223 638Q206 638 197 623T185 582H161V582Z" />
<glyph unicode="&#xf2;" glyph-name="ograve" horiz-adv-x="532" d="M54 238Q54 298 71 345T117 424T184 473T266 490Q309 490 347 473T415 424T461 345T478 238Q478 179 461 133T415 54T348 5T266 -12Q223 -12 185 5T117 54T71 132T54 238ZM86 238Q86 188 100
148T138 78T195 32T266 16Q304 16 337 32T394 77T432 147T446 238Q446 287 432 328T394 399T337 445T266 462Q228 462 195 446T138 400T100 329T86 238ZM186 706H226L318 572H290L186 706Z" />
<glyph unicode="&#xf3;" glyph-name="oacute" horiz-adv-x="532" d="M54 238Q54 298 71 345T117 424T184 473T266 490Q309 490 347 473T415 424T461 345T478 238Q478 179 461 133T415 54T348 5T266 -12Q223 -12 185 5T117 54T71 132T54 238ZM86 238Q86 188 100
148T138 78T195 32T266 16Q304 16 337 32T394 77T432 147T446 238Q446 287 432 328T394 399T337 445T266 462Q228 462 195 446T138 400T100 329T86 238ZM242 572H214L306 706H346L242 572Z" />
<glyph unicode="&#xf4;" glyph-name="ocircumflex" horiz-adv-x="532" d="M54 238Q54 298 71 345T117 424T184 473T266 490Q309 490 347 473T415 424T461 345T478 238Q478 179 461 133T415 54T348 5T266 -12Q223 -12 185 5T117 54T71 132T54 238ZM86 238Q86 188
100 148T138 78T195 32T266 16Q304 16 337 32T394 77T432 147T446 238Q446 287 432 328T394 399T337 445T266 462Q228 462 195 446T138 400T100 329T86 238ZM252 706H280L374 572H346L268 674H264L186 572H158L252 706Z" />
<glyph unicode="&#xf5;" glyph-name="otilde" horiz-adv-x="532" d="M54 238Q54 298 71 345T117 424T184 473T266 490Q309 490 347 473T415 424T461 345T478 238Q478 179 461 133T415 54T348 5T266 -12Q223 -12 185 5T117 54T71 132T54 238ZM86 238Q86 188 100
148T138 78T195 32T266 16Q304 16 337 32T394 77T432 147T446 238Q446 287 432 328T394 399T337 445T266 462Q228 462 195 446T138 400T100 329T86 238ZM148 582Q149 595 152 609T163 636T182 656T212 664Q230 664 244 655T272 636T297 617T322 608Q339 608 348
623T360 664H384Q383 651 380 637T369 610T350 590T320 582Q302 582 288 590T261 609T236 629T210 638Q193 638 184 623T172 582H148V582Z" />
<glyph unicode="&#xf6;" glyph-name="odieresis" horiz-adv-x="532" d="M54 238Q54 298 71 345T117 424T184 473T266 490Q309 490 347 473T415 424T461 345T478 238Q478 179 461 133T415 54T348 5T266 -12Q223 -12 185 5T117 54T71 132T54 238ZM86 238Q86 188
100 148T138 78T195 32T266 16Q304 16 337 32T394 77T432 147T446 238Q446 287 432 328T394 399T337 445T266 462Q228 462 195 446T138 400T100 329T86 238ZM190 602Q176 602 167 611T158 634Q158 648 167 657T190 666Q204 666 213 657T222 634Q222 620 213 611T190
602ZM342 602Q328 602 319 611T310 634Q310 648 319 657T342 666Q356 666 365 657T374 634Q374 620 365 611T342 602Z" />
<glyph unicode="&#xf7;" glyph-name="divide" horiz-adv-x="472" d="M236 474Q222 474 213 483T204 510Q204 525 213 534T236 544Q250 544 259 535T268 510Q268 493 259 484T236 474ZM204 150Q204 165 213 174T236 184Q250 184 259 175T268 150Q268 133 259 124T236
114Q222 114 213 123T204 150ZM34 344H438V316H34V344Z" />
<glyph unicode="&#xf8;" glyph-name="oslash" horiz-adv-x="532" d="M144 70Q168 44 199 30T266 16Q304 16 337 32T394 77T432 147T446 238Q446 282 436 318T406 384L144 70ZM388 407Q364 433 333 447T266 462Q228 462 195 446T138 400T100 329T86 238Q86 194
96 158T126 93L388 407ZM427 409Q451 377 464 335T478 238Q478 179 461 133T415 54T348 5T266 -12Q226 -12 190 2T125 46L68 -22L46 -4L106 68Q82 100 68 142T54 238Q54 298 71 345T117 424T184 473T266 490Q307 490 343 475T408 431L464 498L486 480L427 409Z"
/>
<glyph unicode="&#xf9;" glyph-name="ugrave" horiz-adv-x="524" d="M88 478H118V174Q118 94 145 55T234 16Q279 16 316 41T398 120V478H428V0H402L398 82H396Q360 40 321 14T232 -12Q158 -12 123 32T88 170V478ZM182 706H222L314 572H286L182 706Z" />
<glyph unicode="&#xfa;" glyph-name="uacute" horiz-adv-x="524" d="M88 478H118V174Q118 94 145 55T234 16Q279 16 316 41T398 120V478H428V0H402L398 82H396Q360 40 321 14T232 -12Q158 -12 123 32T88 170V478ZM238 572H210L302 706H342L238 572Z" />
<glyph unicode="&#xfb;" glyph-name="ucircumflex" horiz-adv-x="524" d="M88 478H118V174Q118 94 145 55T234 16Q279 16 316 41T398 120V478H428V0H402L398 82H396Q360 40 321 14T232 -12Q158 -12 123 32T88 170V478ZM248 706H276L370 572H342L264 674H260L182
572H154L248 706Z" />
<glyph unicode="&#xfc;" glyph-name="udieresis" horiz-adv-x="524" d="M88 478H118V174Q118 94 145 55T234 16Q279 16 316 41T398 120V478H428V0H402L398 82H396Q360 40 321 14T232 -12Q158 -12 123 32T88 170V478ZM186 602Q172 602 163 611T154 634Q154 648
163 657T186 666Q200 666 209 657T218 634Q218 620 209 611T186 602ZM338 602Q324 602 315 611T306 634Q306 648 315 657T338 666Q352 666 361 657T370 634Q370 620 361 611T338 602Z" />
<glyph unicode="&#xfd;" glyph-name="yacute" horiz-adv-x="424" d="M28 -184Q36 -187 46 -189T68 -192Q113 -192 144 -154T196 -56L210 -12L12 478H46L168 164Q180 134 194 98T222 30H226Q238 62 249 98T272 164L380 478H412L220 -68Q211 -96 198 -123T165 -173T122
-208T66 -222Q40 -222 20 -212L28 -184V-184ZM200 572H172L264 706H304L200 572Z" />
<glyph unicode="&#xfe;" glyph-name="thorn" horiz-adv-x="540" d="M126 -222H96V722H126V510V416Q164 445 206 467T294 490Q391 490 438 424T486 246Q486 185 469 137T423 56T356 6T274 -12Q239 -12 202 3T126 48V-42V-222ZM126 82Q170 46 208 31T276 16Q315
16 347 33T404 80T441 153T454 246Q454 292 446 331T418 400T367 445T292 462Q254 462 214 441T126 378V82Z" />
<glyph unicode="&#xff;" glyph-name="ydieresis" horiz-adv-x="424" d="M28 -184Q36 -187 46 -189T68 -192Q113 -192 144 -154T196 -56L210 -12L12 478H46L168 164Q180 134 194 98T222 30H226Q238 62 249 98T272 164L380 478H412L220 -68Q211 -96 198 -123T165
-173T122 -208T66 -222Q40 -222 20 -212L28 -184V-184ZM148 602Q134 602 125 611T116 634Q116 648 125 657T148 666Q162 666 171 657T180 634Q180 620 171 611T148 602ZM300 602Q286 602 277 611T268 634Q268 648 277 657T300 666Q314 666 323 657T332 634Q332
620 323 611T300 602Z" />
<glyph unicode="&#x2013;" glyph-name="endash" horiz-adv-x="480" d="M40 264H440V236H40V264Z" />
<glyph unicode="&#x2014;" glyph-name="emdash" horiz-adv-x="800" d="M40 264H760V236H40V264Z" />
<glyph unicode="&#x2018;" glyph-name="quoteleft" horiz-adv-x="208" d="M152 688Q120 661 104 634T88 565Q90 566 96 566Q108 566 119 559T130 534Q130 517 121 509T96 500Q79 500 69 514T58 558Q58 609 79 644T136 706L152 688Z" />
<glyph unicode="&#x2019;" glyph-name="quoteright" horiz-adv-x="208" d="M56 512Q88 539 104 566T120 635Q118 634 112 634Q100 634 89 641T78 666Q78 683 87 691T112 700Q129 700 139 686T150 642Q150 591 129 556T72 494L56 512Z" />
<glyph unicode="&#x201a;" glyph-name="quotesinglbase" horiz-adv-x="208" d="M56 -107Q88 -80 104 -53T120 16Q118 15 112 15Q100 15 89 22T78 47Q78 64 87 72T112 81Q129 81 139 67T150 23Q150 -28 129 -63T72 -125L56 -107Z" />
<glyph unicode="&#x201c;" glyph-name="quotedblleft" horiz-adv-x="336" d="M152 688Q120 661 104 634T88 565Q90 566 96 566Q108 566 119 559T130 534Q130 517 121 509T96 500Q79 500 69 514T58 558Q58 609 79 644T136 706L152 688ZM280 688Q248 661 232 634T216
565Q218 566 224 566Q236 566 247 559T258 534Q258 517 249 509T224 500Q207 500 197 514T186 558Q186 609 207 644T264 706L280 688Z" />
<glyph unicode="&#x201d;" glyph-name="quotedblright" horiz-adv-x="336" d="M56 512Q88 539 104 566T120 635Q118 634 112 634Q100 634 89 641T78 666Q78 683 87 691T112 700Q129 700 139 686T150 642Q150 591 129 556T72 494L56 512ZM184 512Q216 539 232 566T248
635Q246 634 240 634Q228 634 217 641T206 666Q206 683 215 691T240 700Q257 700 267 686T278 642Q278 591 257 556T200 494L184 512Z" />
<glyph unicode="&#x201e;" glyph-name="quotedblbase" horiz-adv-x="336" d="M56 -107Q88 -80 104 -53T120 16Q118 15 112 15Q100 15 89 22T78 47Q78 64 87 72T112 81Q129 81 139 67T150 23Q150 -28 129 -63T72 -125L56 -107ZM184 -107Q216 -80 232 -53T248 16Q246
15 240 15Q228 15 217 22T206 47Q206 64 215 72T240 81Q257 81 267 67T278 23Q278 -28 257 -63T200 -125L184 -107Z" />
<glyph unicode="&#x2022;" glyph-name="bullet" horiz-adv-x="272" d="M136 158Q118 158 101 165T70 186T48 219T40 264Q40 289 48 308T69 341T100 362T136 370Q154 370 171 363T201 342T223 309T232 264Q232 239 224 220T202 187T171 166T136 158Z" />
<glyph unicode="&#x2039;" glyph-name="guilsinglleft" horiz-adv-x="254" d="M42 238V266L180 430L200 412L76 252L200 90L180 74L42 238Z" />
<glyph unicode="&#x203a;" glyph-name="guilsinglright" horiz-adv-x="254" d="M178 252L54 412L74 430L212 266V238L74 74L54 90L178 252Z" />
</font>
</defs>
</svg>
